老百姓虎论坛

 找回密码
 立即注册(register)
查看: 98|回复: 4

碟中谍6[韩版]Mission.6.2018.720p.HDRip.x264.AAC2.0-STUTTERSHIT 3.8GB

[复制链接]
  • TA的每日心情
    难过
    1 小时前
  • 签到天数: 63 天

    [LV.6]常住居民II

    90

    主题

    334

    帖子

    695

    积分

    二星会员

    Rank: 3Rank: 3

    UID
    10056
    威望
    0 点
    金钱
    945 元
    虎币
    361 枚
    在线时间
    93 小时

    虎

    发表于 2018-9-14 21:36:15 | 显示全部楼层 |阅读模式
    本帖最后由 ifonly 于 2018-9-14 21:37 编辑


    片  名 Mission: Impossible - Fallout
    ◎年  代 2018
    ◎产  地 美国
    ◎类  别 动作/惊悚/冒险
    ◎语  言 英语/法语
    ◎上映日期 2018-07-27(美国)/2018-08-31(中国大陆)
    ◎片  长 147分钟/148分钟(中国大陆)
    ◎导  演 克里斯托弗·麦奎里 Christopher McQuarrie
    ◎主  演 汤姆·克鲁斯 Tom Cruise
          亨利·卡维尔 Henry Cavill
          文·瑞姆斯 Ving Rhames
          西蒙·佩吉 Simon Pegg
          丽贝卡·弗格森 Rebecca Ferguson
          西恩·哈里斯 Sean Harris
          安吉拉·贝塞特 Angela Bassett
          凡妮莎·柯比 Vanessa Kirby
          米歇尔·莫纳汉 Michelle Monaghan
          韦斯·本特利 Wes Bentley
          费雷德里克·施密特 Frederick Schmidt
          亚历克·鲍德温 Alec Baldwin
          梁杨 Yang Liang
          克里斯托弗·琼勒 Kristoffer Joner
          沃尔夫·布利策 Wolf Blitzer
          拉斐尔·琼勒 Raphael Joner
          安德鲁·卡扎纳夫·平 Andrew Cazanave Pin
          克里斯多夫·德·舒瓦西 Christophe de Choisy
          拉裴尔·德普雷 Raphael Desprez
          让·巴普蒂斯特·菲永 Jean Baptiste Fillon
          马克斯·盖勒 Max Geller
          奥利维尔·体班德 Olivier Huband
          亚历山大·普尔 Alexandre Poole
          阿利克斯·贝纳泽什 Alix Bénézech
          乔伊·安沙 Joey Ansah
          维利贝·托皮奇 Velibor Topic
          格雷厄姆·福克斯 Grahame Fox
          卡斯珀·菲利普森 Caspar Phillipson
          菲恩·乔利 Ffion Jolly
          鲁斯·贝恩 Russ Bain
          奈杰尔·艾伦 Nigel Allen

    ◎简  介

      有时好意会造成恶果,人反而被自己所造成的结果所困扰。伊桑·亨特(汤姆·克鲁斯)和他的IMF团队(亚历克·鲍德温、西蒙·佩吉、文·瑞姆斯)将在最新的电影《碟中谍6:全面瓦解》中再度回归,他们会与观众们熟悉的盟友(丽贝卡·弗格森、米歇尔·莫娜汉)一起与时间赛跑,应对一次任务中出现的意外。亨利·卡维尔、安吉拉·贝塞特和凡妮莎·柯比也将加入本片的演员阵容,电影制片人克里斯托夫·迈考利将会再度担任导演。

    Video
    ID : 1
    Format : AVC
    Format/Info : Advanced Video Codec
    Format profile : High@L4.1
    Format settings : CABAC / 4 Ref Frames
    Format settings, CABAC : Yes
    Format settings, ReFrames : 4 frames
    Codec ID : avc1
    Codec ID/Info : Advanced Video Coding
    Duration : 2 h 27 min
    Bit rate : 3 500 kb/s
    Width : 1 280 pixels
    Height : 534 pixels
    Display aspect ratio : 2.40:1
    Original display aspect ratio : 2.40:1
    Frame rate mode : Constant
    Frame rate : 29.970 (30000/1001) FPS
    Color space : YUV
    Chroma subsampling : 4:2:0
    Bit depth : 8 bits
    Scan type : Progressive
    Bits/(Pixel*Frame) : 0.171
    Stream size : 3.57 GiB (93%)
    Title : Mission.Impossible.Fallout.2018.720p.KORSUB.HDRip.x264.AAC2.0-STUTTERSHIT
    Writing library : x264 core 148 r2795M aaa9aa8
    Encoding settings : cabac=1 / ref=4 / deblock=1:0:0 / analyse=0x3:0x113 / me=umh / subme=9 / psy=1 / psy_rd=1.00:0.00 / mixed_ref=1 / me_range=16 / chroma_me=1 / trellis=2 / 8x8dct=1 / cqm=0 / deadzone=21,11 / fast_pskip=1 / chroma_qp_offset=-2 / threads=40 / lookahead_threads=3 / sliced_threads=0 / nr=0 / decimate=1 / interlaced=0 / bluray_compat=0 / constrained_intra=0 / bframes=3 / b_pyramid=2 / b_adapt=2 / b_bias=0 / direct=3 / weightb=1 / open_gop=0 / weightp=2 / keyint=250 / keyint_min=25 / scenecut=40 / intra_refresh=0 / rc_lookahead=50 / rc=abr / mbtree=1 / bitrate=3500 / ratetol=1.0 / qcomp=0.60 / qpmin=0 / qpmax=69 / qpstep=4 / ip_ratio=1.40 / aq=1:1.00

    Audio
    ID : 2
    Format : AAC
    Format/Info : Advanced Audio Codec
    Format profile : LC
    Codec ID : mp4a-40-2
    Duration : 2 h 27 min
    Bit rate mode : Constant
    Bit rate : 256 kb/s
    Channel(s) : 2 channels
    Channel positions : Front: L R
    Sampling rate : 48.0 kHz
    Frame rate : 46.875 FPS (1024 SPF)
    Compression mode : Lossy
    Stream size : 270 MiB (7%)
    Title : Mission.Impossible.Fallout.2018.720p.KORSUB.HDRip.x264.AAC2.0-STUTTERSHIT
    Language : English
    Default : Yes
    Alternate group : 1


    下载:magnet:?xt=urn:btih:6E20636669DFE97D036013599DA7C6BE9EDF0853

    本帖子中包含更多资源

    您需要 登录 才可以下载或查看,没有帐号?立即注册(register)

    x
    回复

    使用道具 举报

  • TA的每日心情
    开心
    昨天 00:00
  • 签到天数: 109 天

    [LV.6]常住居民II

    77

    主题

    4297

    帖子

    8082

    积分

    五星会员

    Rank: 6Rank: 6

    UID
    5541
    威望
    0 点
    金钱
    3431 元
    虎币
    3785 枚
    在线时间
    762 小时
    发表于 2018-9-14 21:44:11 | 显示全部楼层
    谢谢您的分享
    回复

    使用道具 举报

  • TA的每日心情
    奋斗
    2018-10-31 20:51
  • 签到天数: 59 天

    [LV.5]常住居民I

    18

    主题

    273

    帖子

    632

    积分

    二星会员

    Rank: 3Rank: 3

    UID
    9084
    威望
    0 点
    金钱
    153 元
    虎币
    359 枚
    在线时间
    44 小时
    发表于 2018-9-15 09:23:20 | 显示全部楼层
    感谢分享
    回复

    使用道具 举报

  • TA的每日心情
    开心
    昨天 22:59
  • 签到天数: 99 天

    [LV.6]常住居民II

    300

    主题

    5045

    帖子

    2万

    积分

    九星会员

    Rank: 10Rank: 10Rank: 10

    UID
    1909
    威望
    0 点
    金钱
    10847 元
    虎币
    15300 枚
    在线时间
    381 小时

    羊1周年纪念勋章

    发表于 2018-9-16 20:33:20 | 显示全部楼层
    感謝無私分享,支持一下
    回复

    使用道具 举报

  • TA的每日心情
    难过
    1 小时前
  • 签到天数: 63 天

    [LV.6]常住居民II

    90

    主题

    334

    帖子

    695

    积分

    二星会员

    Rank: 3Rank: 3

    UID
    10056
    威望
    0 点
    金钱
    945 元
    虎币
    361 枚
    在线时间
    93 小时

    虎

     楼主| 发表于 2018-9-16 22:21:53 | 显示全部楼层
    自己顶上去给没看到的人
    回复

    使用道具 举报

    本版积分规则

    快速回复 返回顶部 返回列表